logo

12.Oclock.Boys.2013.720p.BRRip.x264-Fastbet99

  • Category Movies
  • Type Mp4
  • Language English
  • Total size 924.8 MB
  • Uploaded By Fastbet99
  • Downloads 119
  • Last checked 2 days ago
  • Date uploaded 4 years ago
  • Seeders 0
  • Leechers 0

12 O’Clock Boys

Documentary

Pug, a wisecracking 13 year old living on a dangerous Westside block, has one goal in mind: to join The Twelve O'Clock Boys; the notorious urban dirt-bike gang of Baltimore. Converging from all parts of the inner city, they invade the streets and clash with police, who are forbidden to chase the bikes for fear of endangering the public. When Pug's older brother dies suddenly, he looks to the pack for mentorship, spurred by their dangerous lifestyle. Pug's story is coupled with unprecedented, action-packed coverage of the riders in their element. The film presents the pivotal years of change in a boy's life growing up in one of the most dangerous and economically depressed cities in the US.

Infohash : 23CFD76B42F4E8F9D63700446E5F83DDA722D4DC

Download 12.Oclock.Boys.2013.720p.BRRip.x264-Fastbet99 Torrent

12 Oclock Boys (2013)

IMDB Info : http://www.imdb.com/title/tt2420006

Source : BRMP (Thanks)
Complete name : 12.Oclock.Boys.2013.720p.BRRip.x264-Fastbet99.mp4
Format : MPEG-4
Format profile : Base Media
Codec ID : isom
File size : 925 MiB
Duration : 1h 15mn
Overall bit rate mode : Variable
Overall bit rate : 1 714 Kbps

Video
ID : 1
Format : AVC
Format/Info : Advanced Video Codec
Format profile : [email protected]
Format settings, CABAC : Yes
Format settings, ReFrames : 4 frames
Codec ID : avc1
Codec ID/Info : Advanced Video Coding
Duration : 1h 15mn
Bit rate : 1 615 Kbps
Maximum bit rate : 9 408 Kbps
Width : 1 280 pixels
Height : 720 pixels
Display aspect ratio : 16:9
Frame rate mode : Constant
Frame rate : 23.976 fps
Color space : YUV
Chroma subsampling : 4:2:0
Bit depth : 8 bits
Scan type : Progressive
Bits/(Pixel*Frame) : 0.073
Stream size : 871 MiB (94%)
Writing library : x264 core 142 r2431 ac76440

Audio
ID : 2
Format : AAC
Format/Info : Advanced Audio Codec
Format profile : LC
Codec ID : 40
Duration : 1h 15mn
Bit rate mode : Variable
Bit rate : 96.0 Kbps
Maximum bit rate : 135 Kbps
Channel count : 2 channels
Channel positions : Front: L R
Sampling rate : 48.0 KHz
Compression mode : Lossy
Stream size : 51.6 MiB (6%)
Language : English

Text
ID : 3
Format : Timed Text
Codec ID : tx3g
Duration : 1h 12mn
Bit rate mode : Variable
Bit rate : 86 bps
Stream size : 45.8 KiB (0%)
Language : English
Encoder : Fastbet99

Download 12.Oclock.Boys.2013.720p.BRRip.x264-Fastbet99 Torrent

Files:

  • 12.Oclock.Boys.2013.720p.BRRip.x264-Fastbet99.jpg (185.5 KB)
  • 12.Oclock.Boys.2013.720p.BRRip.x264-Fastbet99.mp4 (924.6 MB)
  • NFO.txt (3.0 KB)
  • read me.txt (0.1 KB)

There are currently no comments. Feel free to leave one :)

Code:

  • udp://tracker.openbittorrent.com:80/announce
  • udp://tracker.publicbt.com:80/announce
  • udp://open.demonii.com:1337/announce
  • udp://tracker.coppersurfer.tk:6969/announce
  • http://p2pdl.com:2710/announce
  • udp://tracker.yify-torrents.com/announce
  • udp://12.rarbg.me:80/announce
  • udp://tracker.publicbt.com:80

X
Attention! Use a VPN when Accessing Free Content !
Your IP address is - Country:
Your Internet provider Tracks your Activity! Hide your IP ADDRESS with a VPN!
Bonus: Get Lag-Free Streams & No popups with any VPN Purchased !

Download Here
Sitemap