logo

Thor The Dark World (2013) DVDRip XviD-MAXSPEED

  • Category Movies
  • Type Divx/Xvid
  • Language English
  • Total size 1.5 GB
  • Uploaded By piratepedia
  • Downloads 15377
  • Last checked 3 hours ago
  • Date uploaded 4 years ago
  • Seeders 5
  • Leechers 0

Thor: The Dark World

ActionAdventureFantasy

Thor fights to restore order across the cosmos… but an ancient race led by the vengeful Malekith returns to plunge the universe back into darkness. Faced with an enemy that even Odin and Asgard cannot withstand, Thor must embark on his most perilous and personal journey yet, one that will reunite him with Jane Foster and force him to sacrifice everything to save us all.

Infohash : C336E2F260157B11EB547B013611E148CF37372C

http://www.torentz.3xforum.ro/post/3358/1/Thor_The_Dark_World_2013_DVDRip_XviD-MAXSPEED/

Download Thor The Dark World (2013) DVDRip XviD-MAXSPEED Torrent

Screens:

Download Thor The Dark World (2013) DVDRip XviD-MAXSPEED Torrent
Download Thor The Dark World (2013) DVDRip XviD-MAXSPEED Torrent
Download Thor The Dark World (2013) DVDRip XviD-MAXSPEED Torrent
Download Thor The Dark World (2013) DVDRip XviD-MAXSPEED Torrent

ScreenCaps:

Download Thor The Dark World (2013) DVDRip XviD-MAXSPEED Torrent

Code:

Thor The Dark World (2013) DVDRip XviD-MAXSPEED
Format : AVI
Format/Info : Audio Video Interleave
Format profile : OpenDML
Format settings : rec
File size : 1.51 GiB
Duration : 1h 52mn
Overall bit rate : 1 934 Kbps
Writing application : VirtualDubMod 1.5.10.2 (build 2542/release)
Writing library : VirtualDubMod build 2542/release
Original source form : MAX TORRENTZ
Copyright : SIGISMUNT

Video
ID : 0
Format : MPEG-4 Visual
Format profile : Advanced [email protected]
Format settings, BVOP : 2
Format settings, QPel : No
Format settings, GMC : No warppoints
Format settings, Matrix : Custom
Codec ID : XVID
Codec ID/Hint : XviD
Duration : 1h 52mn
Bit rate : 1 609 Kbps
Width : 720 pixels
Height : 304 pixels
Display aspect ratio : 2.35:1
Frame rate : 23.976 fps
Color space : YUV
Chroma subsampling : 4:2:0
Bit depth : 8 bits
Scan type : Progressive
Compression mode : Lossy
Bits/(Pixel*Frame) : 0.307
Stream size : 1.26 GiB (83%)
Writing library : XviD 1.2.1 (UTC 2008-12-04)

Audio
ID : 1
Format : AC-3
Format/Info : Audio Coding 3
Mode extension : CM (complete main)
Format settings, Endianness : Big
Codec ID : 2000
Duration : 1h 52mn
Bit rate mode : Constant
Bit rate : 320 Kbps
Channel(s) : 6 channels
Channel positions : Front: L C R, Side: L R, LFE
Sampling rate : 48.0 KHz
Bit depth : 16 bits
Compression mode : Lossy
Stream size : 257 MiB (17%)
Alignment : Aligned on interleaves
Interleave, duration : 64 ms (1.53 video frames)
Interleave, preload duration : 192 ms

Source: WEBDL DVD (perfect a/v/sync quality,sample included)
This torrent is not seedbox supported,please seed it to the MAX

Note: If you have something to offer as early releases,seedboxes,
contact us on http://torentz.3xforum.ro or http://torentz.tk

How To Get Your MAXSPEED (uTorrent)

Torrent Client - Preferences - Bandwidth - Number of connections - Set aprox. 500 for each
Torrent Client - Preferences - BiTorrent - Protocol Encryption - Forced
Bandwidth Allocation - High (Set download/upload limit - Unlimited)
Stop Other Active Torrents - Start downloading and wait for connections.
Enjoy and Seed for at least 1:1 ratio. Don't forget to say thanks/leave reviews.
If screens/Caps image host is dead googlesearch "release name"+"screens" or "sample".
Greets to all actual/future p2p/scene QUALITY groups and affiliate websites.
Don't trust IMDb robot or bad ratings,always watch some trailers first.
Ignore stupid comments/fake/mislabeled/no-DVDrips/CAM/TS/RAR uploads.
Please spread this release/torrent to your friends/forums/etc.
If you need translation subs visit some subtitles sites.
Report if you see online streaming or other spam links.
Recommended movie player VLC PLAYER.

Files:

  • Thor The Dark World (2013) DVDRip XviD-MAXSPEED www.torentz.3xforum.ro.avi (1.5 GB)
  • sample.avi (9.7 MB)
  • screencaps.jpeg (521.7 KB)
  • Thor The Dark World (2013) DVDRip XviD-MAXSPEED.nfo (3.3 KB)
  • Torrent downloaded from Kickass.to.txt (0.0 KB)
  • Torrent Downloaded From ExtraTorrent.cc.txt (0.0 KB)
  • Torrent downloaded from Rarbg.com.txt (0.0 KB)
  • Torrent downloaded from h33t.to.txt (0.0 KB)

Comments

Code:

  • udp://tracker.openbittorrent.com:80/announce
  • udp://10.rarbg.com/announce
  • udp://tracker.istole.it:80/announce
  • udp://ipv4.tracker.harry.lu:80/announce
  • udp://11.rarbg.com:80/announce
  • http://tracker.ex.ua:80/announce
  • udp://tracker.publicbt.com:80/announce
  • udp://9.rarbg.com:2710/announce
  • udp://tracker.zond.org:80/announce
  • udp://tracker.token.ro:80/announce
  • udp://bt.rghost.net:80/announce
  • udp://tracker.publichd.eu/announce
  • udp://open.demonii.com:1337/announce
  • udp://tracker.coppersurfer.tk:6969/announce
  • udp://pow7.com:80/announce
X
Attention! Use a VPN when Accessing Free Content !
Your IP address is - Country:
Your Internet provider Tracks your Activity! Hide your IP ADDRESS with a VPN!
Bonus: Get Lag-Free Streams & No popups with any VPN Purchased !

Download Here
Sitemap