logo

Scappo Dalla Città 2 (1994) [XviD - Italian Mp3] MIRCrew [TNT Vil...

  • Category Movies
  • Type Divx/Xvid
  • Language Italian
  • Total size 716.9 MB
  • Uploaded By robbyrs
  • Downloads 120
  • Last checked 1 day ago
  • Date uploaded 5 years ago
  • Seeders 2
  • Leechers 1

Infohash : 8B6C80C8CF71DC8EA92B60283A6F33A7101D2270

Scappo Dalla Città 2 (1994) [XviD - Italian Mp3] MIRCrew [TNT Village]


Download Scappo Dalla Città 2 (1994) [XviD - Italian Mp3] MIRCrew [TNT Village] Torrent

*********************************************

Download Scappo Dalla Città 2 (1994) [XviD - Italian Mp3] MIRCrew [TNT Village] Torrent

Scappo Dalla Città 2 (1994)




Download Scappo Dalla Città 2 (1994) [XviD - Italian Mp3] MIRCrew [TNT Village] Torrent

Download Scappo Dalla Città 2 (1994) [XviD - Italian Mp3] MIRCrew [TNT Village] Torrent

Titolo originale City Slickers II: The Legend of Curly's Gold
Lingua originale Inglese
Paese di produzione USA
Anno 1994
Genere Commedia
Regia Paul Weiland



Download Scappo Dalla Città 2 (1994) [XviD - Italian Mp3] MIRCrew [TNT Village] Torrent

Billy Crystal: Mitch Robbins
Daniel Stern: Phil Berquist
Jon Lovitz: Glen Robbins
Jack Palance: Duke Washburn
Beth Grant: Lois
Josh Mostel: Barry Shalowitz
David Paymer: Ira Shalowitz

Doppiatori italiani

Marco Mete: Mitch Robbins

Download Scappo Dalla Città 2 (1994) [XviD - Italian Mp3] MIRCrew [TNT Village] Torrent



Download Scappo Dalla Città 2 (1994) [XviD - Italian Mp3] MIRCrew [TNT Village] Torrent

Mitch trova nel cappello di Curly una vecchia mappa del tesoro. Sinceratosi con Phil della sua autenticità, decide di mettersi in viaggio con lui ed il fratello Glen per un'altra vacanza

alternativa, facendo credere alla moglie di essere in viaggio di lavoro. Lungo il cammino incontrerà il fratello gemello di Curly, Duke, uguale nell'aspetto ma di tutt'altre ambizioni: con

lui alla guida riuscirà a raggiungere il luogo dove si trova il tesoro, in lingotti, lasciato in eredità ai due gemelli dal loro padre................

Download Scappo Dalla Città 2 (1994) [XviD - Italian Mp3] MIRCrew [TNT Village] Torrent



Download Scappo Dalla Città 2 (1994) [XviD - Italian Mp3] MIRCrew [TNT Village] Torrent



Download Scappo Dalla Città 2 (1994) [XviD - Italian Mp3] MIRCrew [TNT Village] Torrent

General
General
Complete name : Scappo Dalla Città 2 (1994).avi
Format : AVI
Format/Info : Audio Video Interleave
File size : 717 MiB
Duration : 1h 46mn
Overall bit rate : 940 Kbps
Writing application : VirtualDubMod 1.5.10.2 (build 2540/release)
Writing library : VirtualDubMod build 2540/release

Video
ID : 0
Format : MPEG-4 Visual
Format profile : Advanced [email protected]
Format settings, BVOP : Yes
Format settings, QPel : No
Format settings, GMC : No warppoints
Format settings, Matrix : Default (H.263)
Muxing mode : Packed bitstream
Codec ID : XVID
Codec ID/Hint : XviD
Duration : 1h 46mn
Bit rate : 803 Kbps
Width : 512 pixels
Height : 272 pixels
Display aspect ratio : 1.882
Frame rate : 25.000 fps
Original frame rate : 23.976 fps
Color space : YUV
Chroma subsampling : 4:2:0
Bit depth : 8 bits
Scan type : Progressive
Bits/(Pixel*Frame) : 0.230
Stream size : 612 MiB (85%)
Writing library : XviD 1.0.1 (UTC 2004-06-05)

Audio
ID : 1
Format : MPEG Audio
Format version : Version 1
Format profile : Layer 3
Mode : Joint stereo
Mode extension : MS Stereo
Codec ID : 55
Codec ID/Hint : MP3
Duration : 1h 46mn
Bit rate mode : Constant
Bit rate : 128 Kbps
Channel(s) : 2 channels
Sampling rate : 44.1 KHz
Stream size : 97.4 MiB (14%)
Alignment : Aligned on interleaves
Interleave, duration : 40 ms (1.00 video frame)
Interleave, preload duration : 522 ms
Writing library : LAME3.95



Files:

  • Scappo Dalla Città 2 (1994).avi (716.9 MB)

There are currently no comments. Feel free to leave one :)

Code:

  • http://tracker.tntvillage.scambioetico.org:2710/announce
  • udp://tracker.tntvillage.scambioetico.org:2710/announce
  • udp://fr33dom.h33t.com:3310/announce
  • http://tracker2.torrentbox.com:2710/announce
  • http://tracker.torrentbox.com:2710/announce
  • http://tracker1.torrentbox.com:2710/announce
  • http://tracker.podtropolis.com:2711/announce
  • udp://tracker.1337x.org:80/announce
  • udp://tracker.openbittorrent.com:80/announce
  • http://tracker.openbittorrent.com:80/announce
  • udp://tracker.istole.it:80/announce
  • http://9.rarbg.com:2710/announce
  • udp://tracker.btscene.eu:80/announce

X
Attention! Use a VPN when Accessing Free Content !
Your IP address is - Country:
Your Internet provider Tracks your Activity! Hide your IP ADDRESS with a VPN!
Bonus: Get Lag-Free Streams & No popups with any VPN Purchased !

Download Here
Sitemap