logo

To Hell And Back The Kane Hodder Story.2017.1080p.BRRip.x264.AAC....

  • Category Movies
  • Type HD
  • Language English
  • Total size 2.1 GB
  • Uploaded By Hon3yHD
  • Downloads 19
  • Last checked 2 days ago
  • Date uploaded 2 months ago
  • Seeders 2
  • Leechers 1

To Hell and Back: The Kane Hodder S...

Documentary

To Hell and Back: The Kane Hodder Story is the harrowing story of a stuntman overcoming a dehumanizing childhood filled with torment and bullying in Sparks, Nevada. After surviving a near-death burn accident, he worked his way up through Hollywood, leading to his ultimate rise as Jason Voorhees in the Friday the 13th series and making countless moviegoers forever terrified of hockey masks and summer camp. Featuring interviews with cinema legends, including Bruce Campbell (Ash vs. Evil Dead), Robert Englund (Freddy Krueger), and Cassandra Peterson (Elvira: Mistress of the Dark), To Hell and Back peels off the mask of Kane Hodder, cinema's most prolific killer, in a gut-wrenching, but inspiring, documentary. After decades of watching Kane Hodder on screen, get ready to meet the man behind the mask in To Hell and Back - an uniquely human story about one of cinema's most vicious monsters.

Infohash : 9E96CF0E9768FF01BDAD71DB22DA7E7F905A4CF3



Download To Hell And Back The Kane Hodder Story.2017.1080p.BRRip.x264.AAC.5.1.-.Hon3yHD Torrent

Download To Hell And Back The Kane Hodder Story.2017.1080p.BRRip.x264.AAC.5.1.-.Hon3yHD Torrent Download To Hell And Back The Kane Hodder Story.2017.1080p.BRRip.x264.AAC.5.1.-.Hon3yHD Torrent Download To Hell And Back The Kane Hodder Story.2017.1080p.BRRip.x264.AAC.5.1.-.Hon3yHD Torrent Download To Hell And Back The Kane Hodder Story.2017.1080p.BRRip.x264.AAC.5.1.-.Hon3yHD Torrent

Format : Matroska
Format version : Version 4
File size : 2.13 GiB
Duration : 1 h 48 min
Overall bit rate : 2 801 kb/s
Movie name : To Hell And Back The Kane Hodder Story.2017.1080p.BRRip.x264.AAC.5.1.-.Hon3yHD


Video
ID : 1
Format : AVC
Format/Info : Advanced Video Codec
Format profile : [email protected]
Format settings : CABAC / 8 Ref Frames
Format settings, CABAC : Yes
Format settings, RefFrames : 8 frames
Codec ID : V_MPEG4/ISO/AVC
Duration : 1 h 48 min
Bit rate : 2 500 kb/s
Width : 1 920 pixels
Height : 816 pixels
Display aspect ratio : 2.35:1
Frame rate mode : Constant
Frame rate : 23.976 (24000/1001) FPS
Color space : YUV
Chroma subsampling : 4:2:0
Bit depth : 8 bits
Scan type : Progressive

Audio
ID : 2
Format : AAC LC
Format/Info : Advanced Audio Codec Low Complexity
Codec ID : A_AAC-2
Duration : 1 h 48 min
Bit rate : 288 kb/s
Channel(s) : 6 channels
Channel layout : C L R Ls Rs LFE
Sampling rate : 48.0 kHz
Frame rate : 46.875 FPS (1024 SPF)
Compression mode : Lossy
Delay relative to video : 9 ms
Stream size : 225 MiB (10%)
Title : Hon3yHD.org
Language : English


Text
ID : 3
Format : UTF-8
Codec ID : S_TEXT/UTF8
Codec ID/Info : UTF-8 Plain Text
Duration : 1 h 48 min
Bit rate : 103 b/s
Count of elements : 2171
Stream size : 82.1 KiB (0%)
Title : Hon3yHD.org
Language : English


For more Exclusive & Quality Stuff Visit :: Hon3yHD

Download To Hell And Back The Kane Hodder Story.2017.1080p.BRRip.x264.AAC.5.1.-.Hon3yHD Torrent


Files:

To Hell And Back The Kane Hodder Story.2017.1080p.BRRip.x264.AAC.5.1.-.Hon3yHD
  • Hon3yHD.net.txt (0.1 KB)
  • SaMple To Hell And Back The Kane Hodder Story.2017.1080p.BRRip.x264.AAC.5.1.-.Hon3yHD.mkv (19.4 MB)
  • To Hell And Back The Kane Hodder Story.2017.1080p.BRRip.x264.AAC.5.1.-.Hon3yHD.mkv (2.1 GB)
  • Torrent Seed By www.cyber-planet.in.txt (0.1 KB)

There are currently no comments. Feel free to leave one :)

Code:

  • udp://tracker.coppersurfer.tk:6969/announce
  • udp://tracker.pirateparty.gr:6969/announce
  • udp://shadowshq.yi.org:6969/announce
  • udp://eddie4.nl:6969/announce
  • udp://tracker.leechers-paradise.org:6969/announce
  • udp://tracker.opentrackr.org:1337/announce
  • udp://p4p.arenabg.ch:1337/announce
  • udp://p4p.arenabg.com:1337/announce
  • udp://9.rarbg.me:2710/announce
  • udp://9.rarbg.to:2710/announce
  • udp://ipv4.tracker.harry.lu:80/announce
  • udp://tracker.grepler.com:6969/announce
  • udp://public.popcorn-tracker.org:6969/announce
  • udp://tracker.opentrackr.org:1337/announce
  • udp://tracker.zer0day.to:1337/announce

X
Attention! Use a VPN when Accessing Free Content !
Your IP address is - Country:
Your Internet provider Tracks your Activity! Hide your IP ADDRESS with a VPN!
Bonus: Get Lag-Free Streams & No popups with any VPN Purchased !

Download Here
Sitemap