logo

Thor The Dark World (2013) 1080p BluRay Hindi DD 5.1Ch - Eng DD 5...

  • Category Movies
  • Type Dubs/Dual Audio
  • Language English
  • Total size 7.5 GB
  • Uploaded By THEGABRU
  • Downloads 267
  • Last checked 35 minutes ago
  • Date uploaded 3 months ago
  • Seeders 2
  • Leechers 5

Thor: The Dark World

ActionAdventureFantasy

Thor fights to restore order across the cosmos… but an ancient race led by the vengeful Malekith returns to plunge the universe back into darkness. Faced with an enemy that even Odin and Asgard cannot withstand, Thor must embark on his most perilous and personal journey yet, one that will reunite him with Jane Foster and force him to sacrifice everything to save us all.

Infohash : ED8D6DEF260AE6BA9DE3669C598E33C97FDC6915

Thor The Dark World (2013) 1080p BluRay Hindi DD 5.1Ch - Eng DD 5.1Ch ~ MANN KT

Download Thor The Dark World (2013) 1080p BluRay Hindi DD 5.1Ch - Eng DD 5.1Ch ~ MANN KT Torrent

General

Format : Matroska
Format version : Version 4 / Version 2
File size : 7.47 GiB
Duration : 1 h 52 min
Overall bit rate : 9 544 kb/s
Movie name : MANN KT
Encoded date : UTC 2018-07-09 19:12:27
Writing application : mkvmerge v24.0.0 ('Beyond The Pale') 64-bit
Writing library : libebml v1.3.6 + libmatroska v1.4.9

Video
ID : 1
Format : AVC
Format/Info : Advanced Video Codec
Format profile : [email protected]
Format settings, CABAC : Yes
Format settings, ReFrames : 5 frames
Codec ID : V_MPEG4/ISO/AVC
Duration : 1 h 52 min
Bit rate : 8 263 kb/s
Width : 1 920 pixels
Height : 800 pixels
Display aspect ratio : 2.40:1
Frame rate mode : Constant
Frame rate : 23.976 FPS
Color space : YUV
Chroma subsampling : 4:2:0
Bit depth : 8 bits
Scan type : Progressive
Bits/(Pixel*Frame) : 0.224
Stream size : 6.47 GiB (87%)
Title : MANN KT
Language : English
Default : No
Forced : No

Audio #1
ID : 2
Format : AC-3
Format/Info : Audio Coding 3
Mode extension : CM (complete main)
Format settings, Endianness : Big
Codec ID : A_AC3
Duration : 1 h 52 min
Bit rate mode : Constant
Bit rate : 640 kb/s
Channel(s) : 6 channels
Channel positions : Front: L C R, Side: L R, LFE
Sampling rate : 48.0 kHz
Frame rate : 31.250 FPS (1536 spf)
Bit depth : 16 bits
Compression mode : Lossy
Stream size : 513 MiB (7%)
Title : MANN KT
Language : Hindi
Default : Yes
Forced : Yes

Audio #2
ID : 3
Format : AC-3
Format/Info : Audio Coding 3
Mode extension : CM (complete main)
Format settings, Endianness : Big
Codec ID : A_AC3
Duration : 1 h 52 min
Bit rate mode : Constant
Bit rate : 640 kb/s
Channel(s) : 6 channels
Channel positions : Front: L C R, Side: L R, LFE
Sampling rate : 48.0 kHz
Frame rate : 31.250 FPS (1536 spf)
Bit depth : 16 bits
Compression mode : Lossy
Stream size : 513 MiB (7%)
Title : MANN KT
Language : English
Default : No
Forced : No

Text
ID : 4
Format : UTF-8
Codec ID : S_TEXT/UTF8
Codec ID/Info : UTF-8 Plain Text
Duration : 1 h 13 min
Bit rate : 1 b/s
Count of elements : 30
Stream size : 996 Bytes (0%)
Title : MANN KT
Language : English
Default : No
Forced : Yes

SCREENSHOTS

Download Thor The Dark World (2013) 1080p BluRay Hindi DD 5.1Ch - Eng DD 5.1Ch ~ MANN KT Torrent

ENJOY

Files:

Thor The Dark World (2013) Movie
  • Thor The Dark World (2013).mkv (7.5 GB)
Sample
  • Sample.mkv (48.2 MB)
Screens
  • Thor The Dark World (2013).jpg (7.5 MB)

Comments

Code:

  • udp://tracker.coppersurfer.tk:6969/announce
  • udp://tracker.pirateparty.gr:6969/announce
  • udp://shadowshq.yi.org:6969/announce
  • udp://eddie4.nl:6969/announce
  • udp://tracker.leechers-paradise.org:6969/announce
  • udp://tracker.opentrackr.org:1337/announce
  • udp://p4p.arenabg.ch:1337/announce
  • udp://p4p.arenabg.com:1337/announce
  • udp://9.rarbg.me:2710/announce
  • udp://9.rarbg.to:2710/announce
  • udp://tracker.coppersurfer.tk:80/announce
  • udp://tracker.vanitycore.co:6969/announce
  • udp://public.popcorn-tracker.org:6969/announce
  • udp://tracker.opentrackr.org:1337/announce
  • udp://tracker.zer0day.to:1337/announce
X
Attention! Use a VPN when Accessing Free Content !
Your IP address is - Country:
Your Internet provider Tracks your Activity! Hide your IP ADDRESS with a VPN!
Bonus: Get Lag-Free Streams & No popups with any VPN Purchased !

Download Here
Sitemap