logo

18+ True To The Game 2017 UNCENSORED Movies HDRip x264 5.1 with S...

  • Category Movies
  • Type HD
  • Language English
  • Total size 847.4 MB
  • Uploaded By nehalpuja
  • Downloads 614
  • Last checked 7 months ago
  • Date uploaded 8 months ago
  • Seeders 4
  • Leechers 3

Infohash : ECD2F1D19B1639B81403E1BFECDCB23A6ACE844B

18+ True To The Game 2017 UNCENSORED Movies HDRip x264 5.1 with Sample ☻rDX☻
===============================================================================================

SCREEN SHOTS:

Download 18+ True To The Game 2017 UNCENSORED Movies HDRip x264 5.1 with Sample ☻rDX☻ Torrent

or

http://iphonehosting.eu/2018/3/american/1.html

File size : 838 MiB
Duration : 1 h 48 min
Overall bit rate mode : Constant
Overall bit rate : 1 081 kb/s
Movie name : 18+ True To The Game 2017 UNCENSORED Movies HDRip x264 5.1 ☻rDX☻

Video
ID : 2
Format : AVC
Format/Info : Advanced Video Codec
Format profile : [email protected]
Format settings, CABAC : Yes
Format settings, ReFrames : 2 frames
Format settings, GOP : M=1, N=12
Codec ID : V_MPEG4/ISO/AVC
Duration : 1 h 48 min
Bit rate mode : Constant
Bit rate : 698 kb/s
Width : 720 pixels
Height : 400 pixels
Display aspect ratio : 16:9
Frame rate mode : Constant
Frame rate : 23.976 (24000/1001) FPS
Color space : YUV
Chroma subsampling : 4:2:0
Bit depth : 8 bits
Scan type : Progressive
Bits/(Pixel*Frame) : 0.101
Stream size : 524 MiB (62%)
Title : ☻rDX☻
Default : Yes
Forced : No

Audio
ID : 1
Format : AC-3
Format/Info : Audio Coding 3
Mode extension : CM (complete main)
Format settings, Endianness : Big
Codec ID : A_AC3
Duration : 1 h 48 min
Bit rate mode : Constant
Bit rate : 384 kb/s
Channel(s) : 6 channels
Channel positions : Front: L C R, Side: L R, LFE
Sampling rate : 48.0 kHz
Frame rate : 31.250 FPS (1536 spf)
Bit depth : 16 bits
Compression mode : Lossy
Stream size : 298 MiB (36%)
Title : ☻rDX☻
Default : Yes
Forced : No

Download 18+ True To The Game 2017 UNCENSORED Movies HDRip x264 5.1 with Sample ☻rDX☻ Torrent

IMDB : http://www.imdb.com/title/tt5116504

Files:

18+ True To The Game 2017 UNCENSORED Movies HDRip x264 5.1 with Sample ☻rDX☻
  • Sample ~ 18+ True To The Game 2017 UNCENSORED Movies HDRip x264 5.1 ☻rDX☻.mkv (9.0 MB)
  • 18+ True To The Game 2017 UNCENSORED Movies HDRip x264 5.1 ☻rDX☻.mkv (838.4 MB)

There are currently no comments. Feel free to leave one :)

Code:

  • udp://tracker.coppersurfer.tk:6969/announce
  • udp://tracker.openbittorrent.com:80/announce
  • udp://glotorrents.pw:6969/announce
  • udp://tracker.publicbt.com:80/announce
  • http://retracker.krs-ix.ru/announce
  • udp://tracker.pomf.se:80/announce
  • udp://explodie.org:6969/announce
  • http://mgtracker.org:2710/announce
  • http://tracker.aletorrenty.pl:2710/announce
  • http://tracker.btcake.com/announce
  • udp://tracker.openbittorrent.com:80/announce
  • udp://tracker.leechers-paradise.org:6969/announce
  • udp://coppersurfer.tk:6969/announce

X
Attention! Use a VPN when Accessing Free Content !
Your IP address is - Country:
Your Internet provider Tracks your Activity! Hide your IP ADDRESS with a VPN!
Bonus: Get Lag-Free Streams & No popups with any VPN Purchased !

Download Here
Sitemap