logo

The Hurricane Heist 2018 HDCAM x264 AAC [MW]

  • Category Movies
  • Type h.264/x264
  • Language English
  • Total size 750.4 MB
  • Uploaded By moviezworldz
  • Downloads 634
  • Last checked 5 months ago
  • Date uploaded 8 months ago
  • Seeders 5
  • Leechers 5

The Hurricane Heist

ActionCrimeThriller

Thieves attempt a massive heist against the U.S. Treasury as a Category 5 hurricane approaches one of its Mint facilities.

Infohash : 510889998BDD19DEB999E8F515C8967E9985DDFE



Download The Hurricane Heist 2018 HDCAM x264 AAC [MW] Torrent



General
Format : Matroska
Format version : Version 4 / Version 2
File size : 750 MiB
Duration : 1 h 35 min
Overall bit rate : 1 097 kb/s

Video
ID : 1
Format : AVC
Format/Info : Advanced Video Codec
Format profile : [email protected]
Format settings : CABAC / 4 Ref Frames
Format settings, CABAC : Yes
Format settings, RefFrames : 4 frames
Codec ID : V_MPEG4/ISO/AVC
Duration : 1 h 35 min
Bit rate : 1 000 kb/s
Width : 720 pixels
Height : 324 pixels
Display aspect ratio : 2.222
Frame rate mode : Constant
Frame rate : 29.970 (30000/1001) FPS
Color space : YUV
Chroma subsampling : 4:2:0
Bit depth : 8 bits
Scan type : Progressive
Bits/(Pixel*Frame) : 0.143
Stream size : 683 MiB (91%)
Writing library : x264 core 148 r2708 86b7198
Default : Yes
Forced : No

Audio
ID : 2
Format : AAC
Format/Info : Advanced Audio Codec
Format profile : LC
Codec ID : A_AAC-2
Duration : 1 h 35 min
Bit rate : 96.0 kb/s
Channel(s) : 2 channels
Channel positions : Front: L R
Sampling rate : 44.1 kHz
Frame rate : 43.066 FPS (1024 SPF)
Compression mode : Lossy
Stream size : 65.7 MiB (9%)
Language : English
Default : Yes
Forced : No




Download The Hurricane Heist 2018 HDCAM x264 AAC [MW] Torrent
Download The Hurricane Heist 2018 HDCAM x264 AAC [MW] Torrent
Download The Hurricane Heist 2018 HDCAM x264 AAC [MW] Torrent
Download The Hurricane Heist 2018 HDCAM x264 AAC [MW] Torrent
Download The Hurricane Heist 2018 HDCAM x264 AAC [MW] Torrent
Download The Hurricane Heist 2018 HDCAM x264 AAC [MW] Torrent

Files:

The Hurricane Heist 2018 HDCAM x264 AAC
  • The Hurricane Heist 2018 HDCAM x264 AAC.mkv (750.4 MB)

Comments

Code:

  • udp://tracker.pirateparty.gr:6969/announce
  • udp://tracker.opentrackr.org:1337/announce
  • http://tracker.opentrackr.org/announce
  • udp://tracker.vanitycore.co:6969/announce
  • udp://public.popcorn-tracker.org:6969/announce
  • udp://9.rarbg.to:2710/announce
  • udp://9.rarbg.me:2710/announce
  • udp://9.rarbg.com:2770/announce
  • udp://inferno.demonoid.pw:3391/announce
  • udp://tracker.internetwarriors.net:1337/announce
  • udp://ipv4.tracker.harry.lu:80/announce
  • udp://p4p.arenabg.ch:1337/announce
  • http://tracker.vanitycore.co:6969/announce
  • http://public.popcorn-tracker.org:6969/announce
  • udp://tracker.zer0day.to:1337/announce

X
Attention! Use a VPN when Accessing Free Content !
Your IP address is - Country:
Your Internet provider Tracks your Activity! Hide your IP ADDRESS with a VPN!
Bonus: Get Lag-Free Streams & No popups with any VPN Purchased !

Download Here
Sitemap