logo

Admission 2013 720p Esub BluRay Dual Audio English Hindi GOPISAH...

  • Category Movies
  • Type Dubs/Dual Audio
  • Language English
  • Total size 622.0 MB
  • Uploaded By PENDUDESI
  • Downloads 404
  • Last checked 5 months ago
  • Date uploaded 9 months ago
  • Seeders 0
  • Leechers 0

Admission

ComedyDramaRomance

Straitlaced Princeton University admissions officer Portia Nathan (Tina Fey) is caught off-guard when she makes a recruiting visit to an alternative high school overseen by her former college classmate, the freewheeling John Pressman (Paul Rudd). Pressman has surmised that Jeremiah (Nat Wolff), his gifted yet very unconventional student, might well be the son that Portia secretly gave up for adoption many years ago. Soon, Portia finds herself bending the rules for Jeremiah, putting at risk the life she thought she always wanted -- but in the process finding her way to a surprising and exhilarating life and romance she never dreamed of having.

Infohash : 275EF3F3561CE36C28E675A1F058DD2FD8E8260E

Download Admission 2013 720p Esub BluRay  Dual Audio English Hindi GOPISAHI Torrent
Format : Matroska
Format version : Version 4 / Version 2
File size : 622 MiB
Duration : 1 h 47 min
Overall bit rate : 811 kb/s
Movie name : Admission 2013 GOPISAHI

Video
Format : AVC
Codec ID : V_MPEG4/ISO/AVC
Duration : 1 h 47 min
Bit rate : 600 kb/s
Width : 1 280 pixels
Height : 536 pixels
Display aspect ratio : 2.40:1
Frame rate mode : Constant
Frame rate : 23.976 (24000/1001) FPS
Stream size : 459 MiB (74%)
Title : GOPISAHI
Writing library : x264 core 155 r2893 b00bcaf

Audio #1
Format : AAC
Duration : 1 h 47 min
Bit rate : 101 kb/s
Channel(s) : 6 channels
Channel positions : Front: L C R, Side: L R, LFE
Sampling rate : 44.1 kHz
Frame rate : 43.066 FPS (1024 SPF)
Compression mode : Lossy
Stream size : 77.6 MiB (12%)
Title : GOPISAHI
Language : English

Audio #2
Format : AAC
Duration : 1 h 47 min
Bit rate : 108 kb/s
Channel(s) : 6 channels
Channel positions : Front: L C R, Side: L R, LFE
Sampling rate : 44.1 kHz
Frame rate : 43.066 FPS (1024 SPF)
Compression mode : Lossy
Stream size : 82.6 MiB (13%)
Title : GOPISAHI
Language : Hindi

Text
Language : English
Download Admission 2013 720p Esub BluRay  Dual Audio English Hindi GOPISAHI Torrent
Download Admission 2013 720p Esub BluRay  Dual Audio English Hindi GOPISAHI Torrent
Download Admission 2013 720p Esub BluRay  Dual Audio English Hindi GOPISAHI Torrent

Files:

  • Admission 2013 720p Esub BluRay Dual Audio English Hindi GOPISAHI.mkv (622.0 MB)

There are currently no comments. Feel free to leave one :)

Code:

  • udp://9.rarbg.to:2710/announce
  • udp://9.rarbg.me:2750/announce
  • udp://9.rarbg.com:2740/announce
  • udp://tracker.leechers-paradise.org:6969/announce
  • udp://tracker.coppersurfer.tk:80/announce
  • udp://tracker.coppersurfer.tk:6969/announce
  • udp://tracker.opentrackr.org:1337/announce
  • udp://p4p.arenabg.com:1337/announce
  • udp://p4p.arenabg.ch:1337/announce
  • udp://tracker.leechers-paradise.org:6969/announce

X
Attention! Use a VPN when Accessing Free Content !
Your IP address is - Country:
Your Internet provider Tracks your Activity! Hide your IP ADDRESS with a VPN!
Bonus: Get Lag-Free Streams & No popups with any VPN Purchased !

Download Here
Sitemap