logo

Thor Ragnarok 2017 1080p BluRay AC3 5.1 x264 ESub

  • Category Movies
  • Type HD
  • Language English
  • Total size 2.2 GB
  • Uploaded By moviezworldz
  • Downloads 427
  • Last checked 1 hour ago
  • Date uploaded 9 months ago
  • Seeders 6
  • Leechers 4

Thor: Ragnarok

ActionAdventureFantasyScience Fiction

Thor is imprisoned on the other side of the universe and finds himself in a race against time to get back to Asgard to stop Ragnarok, the destruction of his homeworld and the end of Asgardian civilization, at the hands of an all-powerful new threat, the ruthless Hela.

Infohash : 5D30480F1F6D57420A3C3797AE094EED93DA32BA


Download Thor Ragnarok 2017 1080p BluRay AC3 5.1 x264 ESub Torrent

General
Format : Matroska
Format version : Version 4 / Version 2
File size : 2.16 GiB
Duration : 2 h 10 min
Overall bit rate : 2 372 kb/s

Video
ID : 1
Format : AVC
Format/Info : Advanced Video Codec
Format profile : [email protected]
Format settings : CABAC / 4 Ref Frames
Format settings, CABAC : Yes
Format settings, ReFrames : 4 frames
Codec ID : V_MPEG4/ISO/AVC
Duration : 2 h 10 min
Bit rate : 2 000 kb/s
Width : 1 920 pixels
Height : 804 pixels
Display aspect ratio : 2.40:1
Frame rate mode : Constant
Frame rate : 23.976 (24000/1001) FPS
Color space : YUV
Chroma subsampling : 4:2:0
Bit depth : 8 bits
Scan type : Progressive
Bits/(Pixel*Frame) : 0.054
Stream size : 1.81 GiB (84%)
Writing library : x264 core 148 r2708 86b7198
Default : Yes
Forced : No

Audio
ID : 2
Format : AC-3
Format/Info : Audio Coding 3
Codec ID : A_AC3
Duration : 2 h 10 min
Bit rate mode : Constant
Bit rate : 384 kb/s
Channel(s) : 6 channels
Channel positions : Front: L C R, Side: L R, LFE
Sampling rate : 48.0 kHz
Frame rate : 31.250 FPS (1536 SPF)
Bit depth : 16 bits
Compression mode : Lossy
Stream size : 358 MiB (16%)
Language : English
Service kind : Complete Main
Default : Yes
Forced : No

Text
ID : 3
Format : UTF-8
Codec ID : S_TEXT/UTF8
Codec ID/Info : UTF-8 Plain Text
Duration : 2 h 9 min
Bit rate : 49 b/s
Count of elements : 1568
Stream size : 47.2 KiB (0%)
Language : English
Default : Yes
Forced : No





Download Thor Ragnarok 2017 1080p BluRay AC3 5.1 x264 ESub Torrent
Download Thor Ragnarok 2017 1080p BluRay AC3 5.1 x264 ESub Torrent
Download Thor Ragnarok 2017 1080p BluRay AC3 5.1 x264 ESub Torrent
Download Thor Ragnarok 2017 1080p BluRay AC3 5.1 x264 ESub Torrent
Download Thor Ragnarok 2017 1080p BluRay AC3 5.1 x264 ESub Torrent
Download Thor Ragnarok 2017 1080p BluRay AC3 5.1 x264 ESub Torrent
Download Thor Ragnarok 2017 1080p BluRay AC3 5.1 x264 ESub Torrent
Download Thor Ragnarok 2017 1080p BluRay AC3 5.1 x264 ESub Torrent


Files:

Thor Ragnarok 2017 1080p BluRay AC3 5.1 x264 ESub
  • Thor Ragnarok 2017 1080p BluRay AC3 5.1 x264 ESub.mkv (2.2 GB)

There are currently no comments. Feel free to leave one :)

Code:

  • udp://tracker.pirateparty.gr:6969/announce
  • udp://tracker.opentrackr.org:1337/announce
  • http://tracker.opentrackr.org/announce
  • udp://tracker.vanitycore.co:6969/announce
  • udp://public.popcorn-tracker.org:6969/announce
  • udp://9.rarbg.to:2710/announce
  • udp://9.rarbg.me:2710/announce
  • udp://9.rarbg.com:2770/announce
  • udp://inferno.demonoid.pw:3391/announce
  • udp://tracker.internetwarriors.net:1337/announce
  • udp://ipv4.tracker.harry.lu:80/announce
  • udp://p4p.arenabg.ch:1337/announce
  • http://tracker.vanitycore.co:6969/announce
  • http://public.popcorn-tracker.org:6969/announce
  • udp://tracker.zer0day.to:1337/announce

X
Attention! Use a VPN when Accessing Free Content !
Your IP address is - Country:
Your Internet provider Tracks your Activity! Hide your IP ADDRESS with a VPN!
Bonus: Get Lag-Free Streams & No popups with any VPN Purchased !

Download Here
Sitemap