logo

The Big Bang Theory - S05E09 - The Ornithophobia Diffusion - 720p...

  • Category TV
  • Type HD
  • Language English
  • Total size 199.6 MB
  • Uploaded By ShaunGP
  • Downloads 362
  • Last checked 7 months ago
  • Date uploaded 7 years ago
  • Seeders 0
  • Leechers 1
90%
November 11, 2011, 2:00 am

The Big Bang Theory

Leonard and Penny try hanging out as friends on a 'non-date', but end up purposely ruining each others chances with perspective dates. Meanwhile, Sheldon enlists the help of Bernadette and Amy to overcome his fear of birds.

Infohash : 996EC6781F6CCC0311F00A7A454C5204A8AC5FF8

"WEB-DL means straight from iTunes where they release "Bluray" quality episodes.
Such episodes are without any Logo and Caps."

The Big Bang Theory - S05E09 - The Ornithophobia Diffusion - 720p WEB-DL H.264 {[email protected]}

General:

Complete name : The Big Bang Theory - S05E09 - The Ornithophobia Diffusion - 720p WEB-DL H.264 {[email protected]}.mkv
Original air date : November 10 2011
Genre : Sitcom
Language : English
Encoder : [email protected]
File format : Matroska
File size : 199 MiB
Duration : 21mn 26s
Overall bit rate : 1 301 Kbps


Video:

Format : AVC
Duration : 21mn 26s
Bit rate : 1 200 Kbps
Width : 1 280 pixels
Height : 720 pixels
Display aspect ratio : 16:9
Frame rate mode : Variable
Frame rate : 23.976 fps
Color space : YUV
Chroma subsampling : 4:2:0
Bit depth : 8 bits
Scan type : Progressive
Bits/(Pixel*Frame) : 0.054
Stream size : 181 MiB (91%)
Writing library : x264 core 112
Laguage : English
Subtitles : Seperate .srt file included


Audio:

Format : AC-3
Mode extension : CM (complete main)
Codec ID : A_AC3
Duration : 21mn 26s
Bit rate mode : Constant
Bit rate : 96 Kbps
Channel(s) : 2 channels
Channel positions : Front: L R
Sampling rate : 48.0 KHz
Bit depth : 16 bits
Compression mode : Lossy
Stream size : 14.7 MiB (7%)
Language : English

Screen Shots:

Download The Big Bang Theory - S05E09 - The Ornithophobia Diffusion - 720p WEB-DL H.264 {$H@uN} Torrent

Download The Big Bang Theory - S05E09 - The Ornithophobia Diffusion - 720p WEB-DL H.264 {$H@uN} Torrent

Download The Big Bang Theory - S05E09 - The Ornithophobia Diffusion - 720p WEB-DL H.264 {$H@uN} Torrent


Encoder's Notes:

Do Provide Feedback.
Keep in Mind, you are charged nothing for Downloading a TORRENT,
so its your duty to SEED n keep the torrent alive for as long as possible.
Enjoy..!!! Keep Seeding till 1:1 ratio...

Files:

  • The Big Bang Theory - S05E09 - The Ornithophobia Diffusion - 720p WEB-DL H.264 {[email protected]}.mkv (199.5 MB)
  • The Big Bang Theory - S05E09 - The Ornithophobia Diffusion - 720p WEB-DL H.264 {[email protected]}.srt (30.0 KB)

There are currently no comments. Feel free to leave one :)

Code:

  • http://cpleft.com:2710/announce
  • http://tracker.novalayer.org:6969/announce
  • http://pow7.com:80/announce
  • http://secure.pow7.com/announce
  • http://10.rarbg.com/announce
  • http://tracker.torrent.to:2710/announce
  • http://tracker.istole.it/announce
  • http://tracker.irc.su:80/announce
  • http://tracker.prq.to/announce
  • http://t1.pow7.com/announce
  • udp://tracker.istole.it:80
  • udp://tracker.publicbt.com:80/announce
  • http://exodus.desync.com:6969/announce
  • http://9.rarbg.com:2710/announce
  • http://tracker.blazing.de/announce

X
Attention! Use a VPN when Accessing Free Content !
Your IP address is - Country:
Your Internet provider Tracks your Activity! Hide your IP ADDRESS with a VPN!
Bonus: Get Lag-Free Streams & No popups with any VPN Purchased !

Download Here
Sitemap