logo

Smurfs.The.Lost.Village.2017.CAM.XViD-26k

  • Category Movies
  • Type Divx/Xvid
  • Language English
  • Total size 1.5 GB
  • Uploaded By mazemaze16
  • Downloads 1100
  • Last checked 6 months ago
  • Date uploaded 1 year ago
  • Seeders 4
  • Leechers 4

Smurfs: The Lost Village

AdventureAnimationComedyFamily

In this fully animated, all-new take on the Smurfs, a mysterious map sets Smurfette and her friends Brainy, Clumsy and Hefty on an exciting race through the Forbidden Forest leading to the discovery of the biggest secret in Smurf history.

Infohash : 4783EACEC092C2C6CD32102B0346845BC969D5A9

Smurfs The Lost Village 2017 CAM XViD-26k

Download Smurfs.The.Lost.Village.2017.CAM.XViD-26k Torrent

Format : AVI
Format/Info : Audio Video Interleave
File size : 1.37 GiB
Duration : 1h 21mn
Overall bit rate : 2 406 Kbps

Video
ID : 0
Format : MPEG-4 Visual
Format profile : Advanced [email protected]
Format settings, BVOP : 2
Format settings, QPel : Yes
Format settings, GMC : No warppoints
Format settings, Matrix : Default (H.263)
Muxing mode : Packed bitstream
Codec ID : XVID
Codec ID/Hint : XviD
Duration : 1h 21mn
Bit rate : 2 266 Kbps
Width : 720 pixels
Height : 384 pixels
Display aspect ratio : 1.875
Frame rate : 23.976 fps
Color space : YUV
Chroma subsampling : 4:2:0
Bit depth : 8 bits
Scan type : Progressive
Compression mode : Lossy
Bits/(Pixel*Frame) : 0.342
Stream size : 1.29 GiB (94%)
Writing library : XviD 67

Audio
ID : 1
Format : MPEG Audio
Format version : Version 1
Format profile : Layer 3
Mode : Joint stereo
Codec ID : 55
Codec ID/Hint : MP3
Duration : 1h 21mn
Bit rate mode : Constant
Bit rate : 128 Kbps
Channel(s) : 2 channels
Sampling rate : 44.1 KHz
Compression mode : Lossy
Stream size : 74.7 MiB (5%)
Alignment : Aligned on interleaves
Interleave, duration : 26 ms (0.63 video frame)
Interleave, preload duration : 40110 ms
Title : Smurfs CAM AUDIO fixed

Screens:

Download Smurfs.The.Lost.Village.2017.CAM.XViD-26k Torrent Download Smurfs.The.Lost.Village.2017.CAM.XViD-26k Torrent Download Smurfs.The.Lost.Village.2017.CAM.XViD-26k Torrent Download Smurfs.The.Lost.Village.2017.CAM.XViD-26k Torrent Download Smurfs.The.Lost.Village.2017.CAM.XViD-26k Torrent Download Smurfs.The.Lost.Village.2017.CAM.XViD-26k Torrent Download Smurfs.The.Lost.Village.2017.CAM.XViD-26k Torrent Download Smurfs.The.Lost.Village.2017.CAM.XViD-26k Torrent Download Smurfs.The.Lost.Village.2017.CAM.XViD-26k Torrent

Files:

Smurfs.The.Lost.Village.2017.CAM.XViD-26k
  • NFO.NFO (9.6 KB)
  • Smurfs.The.Lost.Village.2017.CAM.XViD-26k.avi (1.4 GB)
  • sample 1.avi (50.1 MB)
  • sample 2.avi (40.9 MB)

There are currently no comments. Feel free to leave one :)

Code:

  • udp://tracker.ilibr.org:6969/announce
  • udp://9.rarbg.com:2710/announce
  • udp://9.rarbg.to:2710/announce
  • udp://tracker.leechers-paradise.org:6969/announce
  • udp://eddie4.nl:6969/announce
  • udp://ipv4.tracker.harry.lu:80/announce
  • udp://explodie.org:6969/announce
  • udp://p4p.arenabg.com:1337/announce
  • udp://p4p.arenabg.ch:1337/announce
  • udp://tracker.zer0day.to:1337/announce
  • udp://tracker.opentrackr.org:1337/announce
  • udp://tracker.ilibr.org:80/announce
  • udp://tracker.coppersurfer.tk:6969/announce
  • udp://tracker.coppersurfer.tk:6969
  • udp://9.rarbg.me:2710/announce

X
Attention! Use a VPN when Accessing Free Content !
Your IP address is - Country:
Your Internet provider Tracks your Activity! Hide your IP ADDRESS with a VPN!
Bonus: Get Lag-Free Streams & No popups with any VPN Purchased !

Download Here
Sitemap