logo

Pirates of the Caribbean-4 On Stranger Tides 2011 HQ 1080p Blu-R...

  • Category Movies
  • Type HD
  • Language French
  • Total size 11.6 GB
  • Uploaded By SaM
  • Downloads 75
  • Last checked 1 day ago
  • Date uploaded 2 years ago
  • Seeders 0
  • Leechers 0

Pirates of the Caribbean: On Strang...

ActionAdventureFantasy

Captain Jack Sparrow crosses paths with a woman from his past, and he's not sure if it's love -- or if she's a ruthless con artist who's using him to find the fabled Fountain of Youth. When she forces him aboard the Queen Anne's Revenge, the ship of the formidable pirate Blackbeard, Jack finds himself on an unexpected adventure in which he doesn't know who to fear more: Blackbeard or the woman from his past.

Infohash : 1936A1FF21DD6FE353A5BDA74E2B30AB214C5097

Download Pirates of the Caribbean-4 On Stranger Tides  2011 HQ 1080p Blu-Ray x264 DTS-HR 7.1 FR Subs -DDR Torrent
Download Pirates of the Caribbean-4 On Stranger Tides  2011 HQ 1080p Blu-Ray x264 DTS-HR 7.1 FR Subs -DDR Torrent


HQ 1080p Blu-ray Rip x264

Fran├žais DTS High Resolution Audio 7.1 Audio

English & French Subtitle

{ SCREENSHOTS}
Download Pirates of the Caribbean-4 On Stranger Tides  2011 HQ 1080p Blu-Ray x264 DTS-HR 7.1 FR Subs -DDR Torrent Download Pirates of the Caribbean-4 On Stranger Tides  2011 HQ 1080p Blu-Ray x264 DTS-HR 7.1 FR Subs -DDR Torrent Download Pirates of the Caribbean-4 On Stranger Tides  2011 HQ 1080p Blu-Ray x264 DTS-HR 7.1 FR Subs -DDR Torrent Download Pirates of the Caribbean-4 On Stranger Tides  2011 HQ 1080p Blu-Ray x264 DTS-HR 7.1 FR Subs -DDR Torrent Download Pirates of the Caribbean-4 On Stranger Tides  2011 HQ 1080p Blu-Ray x264 DTS-HR 7.1 FR Subs -DDR Torrent Download Pirates of the Caribbean-4 On Stranger Tides  2011 HQ 1080p Blu-Ray x264 DTS-HR 7.1 FR Subs -DDR Torrent Download Pirates of the Caribbean-4 On Stranger Tides  2011 HQ 1080p Blu-Ray x264 DTS-HR 7.1 FR Subs -DDR Torrent Download Pirates of the Caribbean-4 On Stranger Tides  2011 HQ 1080p Blu-Ray x264 DTS-HR 7.1 FR Subs -DDR Torrent Download Pirates of the Caribbean-4 On Stranger Tides  2011 HQ 1080p Blu-Ray x264 DTS-HR 7.1 FR Subs -DDR Torrent Download Pirates of the Caribbean-4 On Stranger Tides  2011 HQ 1080p Blu-Ray x264 DTS-HR 7.1 FR Subs -DDR Torrent Download Pirates of the Caribbean-4 On Stranger Tides  2011 HQ 1080p Blu-Ray x264 DTS-HR 7.1 FR Subs -DDR Torrent Download Pirates of the Caribbean-4 On Stranger Tides  2011 HQ 1080p Blu-Ray x264 DTS-HR 7.1 FR Subs -DDR Torrent Download Pirates of the Caribbean-4 On Stranger Tides  2011 HQ 1080p Blu-Ray x264 DTS-HR 7.1 FR Subs -DDR Torrent Download Pirates of the Caribbean-4 On Stranger Tides  2011 HQ 1080p Blu-Ray x264 DTS-HR 7.1 FR Subs -DDR Torrent Download Pirates of the Caribbean-4 On Stranger Tides  2011 HQ 1080p Blu-Ray x264 DTS-HR 7.1 FR Subs -DDR Torrent Download Pirates of the Caribbean-4 On Stranger Tides  2011 HQ 1080p Blu-Ray x264 DTS-HR 7.1 FR Subs -DDR Torrent


Specs:


Source: French BD50 @ DDR

Format : Matroska
Format version : Version 4 / Version 2
File size : 11.5 GiB
Duration : 2 h 16 min
Overall bit rate : 12.1 Mb/s
Encoded date : UTC 2016-09-24 13:13:13
Writing application : mkvmerge v9.4.2 ('So High') 64bit
Writing library : libebml v1.3.4 + libmatroska v1.4.5

Video
ID : 1
Format : AVC
Format/Info : Advanced Video Codec
Format profile : [email protected]
Format settings, CABAC : Yes
Format settings, ReFrames : 5 frames
Codec ID : V_MPEG4/ISO/AVC
Duration : 2 h 16 min
Bit rate : 10.0 Mb/s
Width : 1 920 pixels
Height : 800 pixels
Display aspect ratio : 2.40:1
Frame rate mode : Constant
Frame rate : 23.976 (24000/1001) FPS
Color space : YUV
Chroma subsampling : 4:2:0
Bit depth : 8 bits
Scan type : Progressive
Bits/(Pixel*Frame) : 0.272
Stream size : 9.55 GiB (83%)
Language : English
Default : Yes
Forced : No
Color range : Limited
Color primaries : BT.709
Transfer characteristics : BT.709
Matrix coefficients : BT.709

Audio
ID : 2
Format : DTS
Format/Info : Digital Theater Systems
Format profile : HRA / Core
Mode : 16
Format settings, Endianness : Big
Codec ID : A_DTS
Duration : 2 h 16 min
Bit rate mode : Constant
Bit rate : 2 046 kb/s / 1 509 kb/s
Channel(s) : 8 channels / 6 channels
Channel positions : Front: L C R, Side: L R, Back: L R, LFE / Front: L C R, Side: L R, LFE
Sampling rate : 48.0 kHz
Frame rate : 93.750 FPS (512 spf)
Bit depth : 24 bits
Compression mode : Lossy
Stream size : 1.95 GiB (17%)
Language : French
Default : Yes
Forced : No


SAMPLE Included



A DDR Exclusive Encode



Files:

  • Pirates of the Caribbean-4 On Stranger Tides 2011 HQ1080p Blu-Ray x264 DTS-HR 7.1 FR Subs -DDR.mkv (11.5 GB)
  • sample-Pirates of the Caribbean-4 On Stranger Tides 2011 HQ1080p Blu-Ray x264 DTS-HR 7.1 FR Subs -DDR.mkv (67.2 MB)
  • A DDR Release !!.txt (0.3 KB)

Comments

Code:

  • udp://tracker.coppersurfer.tk:6969/announce
  • udp://tracker.zer0day.to:1337/announce
  • udp://tracker.ilibr.org:6969/announce
  • udp://tracker.leechers-paradise.org:6969/announce
  • udp://torrent.gresille.org:80/announce
  • udp://tracker.ilibr.org:80/announce
  • udp://p4p.arenabg.com:1337/announce
  • udp://p4p.arenabg.ch:1337/announce
  • udp://tracker.leechers-paradise.org:6969/announce
  • udp://tracker.coppersurfer.tk:6969/announce
  • udp://9.rarbg.me:2710/announce
  • udp://tracker.internetwarriors.net:1337/announce
  • udp://tracker.opentrackr.org:1337/announce
  • udp://eddie4.nl:6969/announce
  • udp://9.rarbg.to:2710/announce
´╗┐
X
Attention! Use a VPN when Accessing Free Content !
Your IP address is - Country:
Your Internet provider Tracks your Activity! Hide your IP ADDRESS with a VPN!
Bonus: Get Lag-Free Streams & No popups with any VPN Purchased !

Download Here
Sitemap