logo

Abattoir (2016) 1080p Blu-Ray x264 DTS-HD 5.1 ESub -DDR)

  • Category Movies
  • Type HD
  • Language English
  • Total size 9.3 GB
  • Uploaded By SaM
  • Downloads 114
  • Last checked 5 months ago
  • Date uploaded 2 years ago
  • Seeders 0
  • Leechers 0

Abattoir

HorrorThriller

A reporter unearths an urban legend about a home being constructed from rooms where horrific tragedies have occurred.

Infohash : 34E234D85E0C7564C1A76D149BB55C966F75DC78

Download Abattoir (2016) 1080p Blu-Ray x264 DTS-HD 5.1 ESub -DDR) Torrent

Download Abattoir (2016) 1080p Blu-Ray x264 DTS-HD 5.1 ESub -DDR) Torrent

HQ 1080p Blu-ray Rip x264

English DTS-HD MA 5.1 Audio

English SDH Subtitle

Download Abattoir (2016) 1080p Blu-Ray x264 DTS-HD 5.1 ESub -DDR) Torrent Download Abattoir (2016) 1080p Blu-Ray x264 DTS-HD 5.1 ESub -DDR) Torrent Download Abattoir (2016) 1080p Blu-Ray x264 DTS-HD 5.1 ESub -DDR) Torrent Download Abattoir (2016) 1080p Blu-Ray x264 DTS-HD 5.1 ESub -DDR) Torrent Download Abattoir (2016) 1080p Blu-Ray x264 DTS-HD 5.1 ESub -DDR) Torrent Download Abattoir (2016) 1080p Blu-Ray x264 DTS-HD 5.1 ESub -DDR) Torrent Download Abattoir (2016) 1080p Blu-Ray x264 DTS-HD 5.1 ESub -DDR) Torrent Download Abattoir (2016) 1080p Blu-Ray x264 DTS-HD 5.1 ESub -DDR) Torrent Download Abattoir (2016) 1080p Blu-Ray x264 DTS-HD 5.1 ESub -DDR) Torrent Download Abattoir (2016) 1080p Blu-Ray x264 DTS-HD 5.1 ESub -DDR) Torrent Download Abattoir (2016) 1080p Blu-Ray x264 DTS-HD 5.1 ESub -DDR) Torrent Download Abattoir (2016) 1080p Blu-Ray x264 DTS-HD 5.1 ESub -DDR) Torrent Download Abattoir (2016) 1080p Blu-Ray x264 DTS-HD 5.1 ESub -DDR) Torrent


Specs:


Source: BDremux @ HDT

Format : Matroska
File size : 9.19 GiB
Duration : 1 h 39 min
Overall bit rate : 13.3 Mb/s

Video
ID : 1
Format : AVC
Format/Info : Advanced Video Codec
Format profile : [email protected]
Format settings, CABAC : Yes
Format settings, ReFrames : 5 frames
Codec ID : V_MPEG4/ISO/AVC
Duration : 1 h 39 min
Bit rate : 10.0 Mb/s
Width : 1 920 pixels
Height : 800 pixels
Display aspect ratio : 2.40:1
Frame rate mode : Constant
Frame rate : 23.976 (24000/1001) FPS
Color space : YUV
Chroma subsampling : 4:2:0
Bit depth : 8 bits
Scan type : Progressive
Bits/(Pixel*Frame) : 0.272
Stream size : 6.92 GiB (75%)
Forced : No
Color range : Limited
Color primaries : BT.709
Transfer characteristics : BT.709
Matrix coefficients : BT.709

Audio
ID : 2
Format : DTS
Format/Info : Digital Theater Systems
Format profile : MA / Core
Mode : 16
Format settings, Endianness : Big
Codec ID : A_DTS
Duration : 1 h 39 min
Bit rate mode : Variable / Constant
Bit rate : 3 260 kb/s / 768 kb/s
Channel(s) : 6 channels
Channel positions : Front: L C R, Side: L R, LFE
Sampling rate : 48.0 kHz
Frame rate : 93.750 FPS (512 spf)
Bit depth : 24 bits
Compression mode : Lossless / Lossy
Stream size : 2.26 GiB (25%)
Language : English
Default : Yes
Forced : No



Chapters = YES

SAMPLE Included



A DDR Exclusive Encode



Files:

  • Abattoir (2016) 1080p Blu-Ray x264 DTS-HD 5.1 ESub -DDR).mkv (9.2 GB)
  • sample-Abattoir (2016) 1080p Blu-Ray x264 DTS-HD 5.1 ESub -DDR).mkv (88.7 MB)
  • A DDR Release !!.txt (0.3 KB)
  • Torrent downloaded from ExtraTorrent.cc.txt (0.0 KB)

There are currently no comments. Feel free to leave one :)

Code:

  • udp://tracker.coppersurfer.tk:6969/announce
  • udp://tracker.zer0day.to:1337/announce
  • udp://tracker.ilibr.org:6969/announce
  • udp://tracker.leechers-paradise.org:6969/announce
  • udp://torrent.gresille.org:80/announce
  • udp://tracker.ilibr.org:80/announce
  • udp://p4p.arenabg.com:1337/announce
  • udp://p4p.arenabg.ch:1337/announce
  • udp://tracker.leechers-paradise.org:6969/announce
  • udp://tracker.coppersurfer.tk:6969/announce
  • udp://9.rarbg.me:2710/announce
  • udp://tracker.internetwarriors.net:1337/announce
  • udp://tracker.opentrackr.org:1337/announce
  • udp://eddie4.nl:6969/announce
  • udp://9.rarbg.to:2710/announce

X
Attention! Use a VPN when Accessing Free Content !
Your IP address is - Country:
Your Internet provider Tracks your Activity! Hide your IP ADDRESS with a VPN!
Bonus: Get Lag-Free Streams & No popups with any VPN Purchased !

Download Here
Sitemap